osu file format v14

[General]
AudioFilename: 02 - Into The Void.mp3
AudioLeadIn: 1500
PreviewTime: 74981
Countdown: 0
SampleSet: Soft
StackLeniency: 0.7
Mode: 3
LetterboxInBreaks: 0
WidescreenStoryboard: 0

[Editor]
Bookmarks: 341,8501,16181,31541,39221,46901,62261,75221,86741,95381,108341,116021,123701,139061,164021,171701,185141,210101,234581,246101,254741,260501,273941,281621,289301,302261,317621,340661,356021,369941
DistanceSpacing: 1
BeatDivisor: 4
GridSize: 16
TimelineZoom: 1.5

[Metadata]
Title:Into The Void
TitleUnicode:Into The Void
Artist:Irreversible Mechanism
ArtistUnicode:Irreversible Mechanism
Creator:XeoStyle
Version:Act I
Source:
Tags:Infinite Fields Technical Death Metal marathon deathstream rsi
BeatmapID:854432
BeatmapSetID:392405

[Difficulty]
HPDrainRate:9
CircleSize:4
OverallDifficulty:9
ApproachRate:5
SliderMultiplier:1.4
SliderTickRate:1

[Events]
//Background and Video events
0,0,"IntoTheVoid.png",0,0
//Break Periods
//Storyboard Layer 0 (Background)
//Storyboard Layer 1 (Fail)
//Storyboard Layer 2 (Pass)
//Storyboard Layer 3 (Foreground)
//Storyboard Sound Samples

[TimingPoints]
341,240,4,2,1,30,1,0
341,-111.111111111111,4,2,1,30,0,0
821,240,4,2,1,30,1,0
821,-111.111111111111,4,2,1,30,0,0
8501,-100,4,2,1,55,0,0
8981,-100,4,2,1,30,0,0
10421,-100,4,2,1,55,0,0
12821,-100,4,2,1,30,0,0
13781,-100,4,2,1,55,0,0
16181,-100,4,2,1,45,0,1
31541,-100,4,2,1,55,0,0
31781,-100,4,2,1,40,0,0
39221,-100,4,2,1,45,0,0
46901,-100,4,2,1,55,0,0
62261,240,6,2,1,55,1,0
63701,-100,6,2,1,30,0,0
64421,-100,6,2,1,55,0,0
75221,-100,6,2,1,55,0,1
86741,-100,6,2,1,55,0,0
95381,-100,6,2,1,55,0,1
106901,-100,6,2,1,55,0,0
108341,240,4,2,1,55,1,0
108341,-100,4,2,1,55,0,1
116021,-100,4,2,1,55,0,0
171701,-100,4,2,1,55,0,1
185141,-100,4,2,1,55,0,0
210101,240,6,2,1,55,1,0
234581,240,4,2,1,55,1,0
246101,240,6,2,1,55,1,0
260501,240,4,2,1,55,1,0
262421,240,6,2,1,55,1,0
273941,240,4,2,1,55,1,0
289301,240,6,2,1,55,1,0
290741,240,4,2,1,55,1,0
296501,240,6,2,1,55,1,0
299381,240,4,2,1,55,1,0
356021,240,6,2,1,55,1,0
357461,240,4,2,1,55,1,0
363221,240,6,2,1,55,1,0
366101,240,4,2,1,55,1,0

[HitObjects]
64,192,341,5,0,0:0:0:0:
192,192,461,1,0,0:0:0:0:
320,192,581,1,0,0:0:0:0:
448,192,701,1,0,0:0:0:0:
64,192,821,128,0,2741:0:0:0:0:
448,192,2741,128,0,3221:0:0:0:0:
448,192,4181,1,0,0:0:0:0:
320,192,4301,1,0,0:0:0:0:
192,192,4421,1,0,0:0:0:0:
64,192,4541,1,0,0:0:0:0:
448,192,4661,128,0,6101:0:0:0:0:
192,192,6101,128,0,6341:0:0:0:0:
320,192,6341,128,0,6581:0:0:0:0:
64,192,6581,128,0,7061:0:0:0:0:
64,192,8021,1,0,0:0:0:0:
192,192,8141,1,0,0:0:0:0:
320,192,8261,1,0,0:0:0:0:
448,192,8381,1,0,0:0:0:0:
320,192,8501,1,2,0:0:0:0:
192,192,8501,1,4,0:0:0:0:
64,192,8501,1,0,0:0:0:0:
448,192,8981,1,0,0:0:0:0:
192,192,9041,1,0,0:0:0:0:
448,192,9101,1,0,0:0:0:0:
192,192,9161,1,0,0:0:0:0:
448,192,9221,1,0,0:0:0:0:
192,192,9281,1,0,0:0:0:0:
448,192,9341,1,0,0:0:0:0:
192,192,9401,1,0,0:0:0:0:
320,192,9461,1,0,0:0:0:0:
64,192,9521,1,0,0:0:0:0:
320,192,9581,1,0,0:0:0:0:
64,192,9641,1,0,0:0:0:0:
320,192,9701,1,0,0:0:0:0:
64,192,9761,1,0,0:0:0:0:
320,192,9821,1,0,0:0:0:0:
64,192,9881,1,0,0:0:0:0:
448,192,9941,1,0,0:0:0:0:
192,192,10001,1,0,0:0:0:0:
448,192,10061,1,0,0:0:0:0:
192,192,10121,1,0,0:0:0:0:
448,192,10181,1,0,0:0:0:0:
192,192,10241,1,0,0:0:0:0:
448,192,10301,1,0,0:0:0:0:
192,192,10361,1,0,0:0:0:0:
64,192,10421,1,4,0:0:0:0:
320,192,10421,1,4,0:0:0:0:
320,192,10901,1,0,0:0:0:0:
64,192,11141,1,0,0:0:0:0:
192,192,11141,1,8,0:0:0:0:
320,192,11201,1,8,0:0:0:0:
448,192,11201,1,0,0:0:0:0:
192,192,11261,1,8,0:0:0:0:
64,192,11261,1,0,0:0:0:0:
320,192,11321,1,8,0:0:0:0:
448,192,11321,1,0,0:0:0:0:
192,192,11381,1,0,0:0:0:70:drums_tom1.wav
64,192,11501,1,0,0:0:0:70:drums_tom2.wav
320,192,11621,1,0,0:0:0:70:drums_tom3.wav
448,192,11681,1,0,0:0:0:70:drums_tom3.wav
192,192,11741,1,0,0:0:0:70:drums_tom3.wav
64,192,11801,1,0,0:0:0:70:drums_tom3.wav
448,192,11861,1,2,0:0:0:0:
320,192,11921,1,2,0:0:0:0:
192,192,11981,1,2,0:0:0:0:
64,192,12041,1,2,0:0:0:0:
320,192,12101,1,2,0:0:0:0:
448,192,12161,1,2,0:0:0:0:
64,192,12221,1,2,0:0:0:0:
192,192,12281,1,2,0:0:0:0:
320,192,12341,1,4,0:0:0:0:
448,192,12341,1,0,0:0:0:0:
64,192,12341,1,4,0:0:0:0:
64,192,12821,1,0,0:0:0:0:
320,192,12881,1,0,0:0:0:0:
64,192,12941,1,0,0:0:0:0:
320,192,13001,1,0,0:0:0:0:
64,192,13061,1,0,0:0:0:0:
320,192,13121,1,0,0:0:0:0:
64,192,13181,1,0,0:0:0:0:
320,192,13241,1,0,0:0:0:0:
192,192,13301,1,0,0:0:0:0:
448,192,13361,1,0,0:0:0:0:
192,192,13421,1,0,0:0:0:0:
448,192,13481,1,0,0:0:0:0:
192,192,13541,1,0,0:0:0:0:
448,192,13601,1,0,0:0:0:0:
192,192,13661,1,0,0:0:0:0:
448,192,13721,1,0,0:0:0:0:
320,192,13781,1,4,0:0:0:0:
64,192,13781,1,2,0:0:0:0:
192,192,14021,1,0,0:0:0:0:
320,192,14021,1,4,0:0:0:0:
64,192,14021,1,2,0:0:0:0:
320,192,14261,1,4,0:0:0:0:
448,192,14261,1,4,0:0:0:0:
192,192,14261,1,0,0:0:0:0:
192,192,14741,1,0,0:0:0:70:drums_tom1.wav
64,192,14801,1,0,0:0:0:70:drums_tom1.wav
448,192,14861,1,0,0:0:0:70:drums_tom2.wav
320,192,14921,1,0,0:0:0:70:drums_tom2.wav
64,192,14981,1,2,0:0:0:0:
192,192,15041,1,2,0:0:0:0:
448,192,15101,1,2,0:0:0:0:
320,192,15161,1,2,0:0:0:0:
192,192,15221,1,8,0:0:0:0:
64,192,15221,1,0,0:0:0:0:
320,192,15281,1,8,0:0:0:0:
448,192,15281,1,0,0:0:0:0:
192,192,15341,1,8,0:0:0:0:
64,192,15341,1,0,0:0:0:0:
320,192,15401,1,8,0:0:0:0:
448,192,15401,1,0,0:0:0:0:
64,192,15461,1,0,0:0:0:70:drums_tom2.wav
192,192,15521,1,0,0:0:0:70:drums_tom2.wav
320,192,15581,1,0,0:0:0:70:drums_tom2.wav
448,192,15641,1,0,0:0:0:70:drums_tom2.wav
192,192,15701,1,2,0:0:0:0:
64,192,15761,1,2,0:0:0:0:
448,192,15821,1,2,0:0:0:0:
320,192,15881,1,2,0:0:0:0:
192,192,15941,1,0,0:0:0:70:drums_tom3.wav
64,192,16001,1,0,0:0:0:70:drums_tom3.wav
320,192,16061,1,0,0:0:0:70:drums_tom3.wav
448,192,16121,1,0,0:0:0:70:drums_tom3.wav
64,192,16181,1,2,0:0:0:0:
192,192,16241,1,8,0:0:0:0:
320,192,16241,1,0,0:0:0:0:
448,192,16301,1,2,0:0:0:0:
320,192,16361,1,8,0:0:0:0:
64,192,16361,1,0,0:0:0:0:
192,192,16421,1,2,0:0:0:0:
320,192,16481,1,0,0:0:0:0:
448,192,16481,1,8,0:0:0:0:
64,192,16541,1,2,0:0:0:0:
192,192,16601,1,8,0:0:0:0:
448,192,16601,1,0,0:0:0:0:
320,192,16661,1,2,0:0:0:0:
192,192,16721,1,0,0:0:0:0:
64,192,16721,1,8,0:0:0:0:
448,192,16781,1,2,0:0:0:0:
320,192,16841,1,0,0:0:0:0:
192,192,16841,1,8,0:0:0:0:
64,192,16901,1,2,0:0:0:0:
320,192,16961,1,0,0:0:0:0:
448,192,16961,1,8,0:0:0:0:
192,192,17021,1,2,0:0:0:0:
64,192,17081,1,0,0:0:0:0:
448,192,17081,1,8,0:0:0:0:
320,192,17141,1,2,0:0:0:0:
192,192,17201,1,0,0:0:0:0:
64,192,17201,1,8,0:0:0:0:
448,192,17261,1,2,0:0:0:0:
320,192,17321,1,0,0:0:0:0:
192,192,17321,1,8,0:0:0:0:
64,192,17381,1,2,0:0:0:0:
320,192,17441,1,8,0:0:0:0:
448,192,17441,1,0,0:0:0:0:
192,192,17501,1,2,0:0:0:0:
64,192,17561,1,0,0:0:0:0:
320,192,17561,1,2,0:0:0:0:
448,192,17621,1,2,0:0:0:0:
192,192,17681,1,0,0:0:0:0:
64,192,17681,1,8,0:0:0:0:
320,192,17741,1,2,0:0:0:0:
448,192,17801,1,0,0:0:0:0:
64,192,17801,1,8,0:0:0:0:
192,192,17861,1,2,0:0:0:0:
320,192,17921,1,0,0:0:0:0:
448,192,17921,1,8,0:0:0:0:
64,192,17981,1,2,0:0:0:0:
192,192,18041,1,8,0:0:0:0:
320,192,18041,1,0,0:0:0:0:
448,192,18101,1,6,0:0:0:0:
64,192,18101,1,4,0:0:0:0:
192,192,18161,1,0,0:0:0:0:
320,192,18161,1,8,0:0:0:0:
448,192,18221,1,2,0:0:0:0:
192,192,18281,1,8,0:0:0:0:
64,192,18281,1,0,0:0:0:0:
320,192,18341,1,2,0:0:0:0:
448,192,18401,1,8,0:0:0:0:
64,192,18401,1,0,0:0:0:0:
192,192,18461,1,2,0:0:0:0:
320,192,18521,1,8,0:0:0:0:
448,192,18521,1,0,0:0:0:0:
64,192,18581,1,2,0:0:0:0:
320,192,18641,1,0,0:0:0:0:
192,192,18641,1,8,0:0:0:0:
448,192,18701,1,2,0:0:0:0:
192,192,18761,1,0,0:0:0:0:
64,192,18761,1,8,0:0:0:0:
320,192,18821,1,2,0:0:0:0:
192,192,18881,1,8,0:0:0:0:
448,192,18881,1,0,0:0:0:0:
64,192,18941,1,2,0:0:0:0:
320,192,19001,1,0,0:0:0:0:
448,192,19001,1,8,0:0:0:0:
192,192,19061,1,2,0:0:0:0:
64,192,19121,1,8,0:0:0:0:
448,192,19121,1,0,0:0:0:0:
320,192,19181,1,2,0:0:0:0:
192,192,19241,1,8,0:0:0:0:
64,192,19241,1,0,0:0:0:0:
448,192,19301,1,2,0:0:0:0:
320,192,19361,1,8,0:0:0:0:
192,192,19361,1,0,0:0:0:0:
64,192,19421,1,2,0:0:0:0:
320,192,19481,1,0,0:0:0:0:
448,192,19481,1,8,0:0:0:0:
192,192,19541,1,2,0:0:0:0:
64,192,19601,1,8,0:0:0:0:
320,192,19601,1,0,0:0:0:0:
448,192,19661,1,2,0:0:0:0:
192,192,19721,1,8,0:0:0:0:
64,192,19721,1,0,0:0:0:0:
320,192,19781,1,2,0:0:0:0:
448,192,19841,1,8,0:0:0:0:
192,192,19841,1,0,0:0:0:0:
64,192,19901,1,2,0:0:0:0:
448,192,19961,1,0,0:0:0:0:
320,192,19961,1,8,0:0:0:0:
192,192,20021,1,4,0:0:0:0:
64,192,20021,1,6,0:0:0:0:
320,192,20081,1,8,0:0:0:0:
448,192,20081,1,0,0:0:0:0:
192,192,20141,1,2,0:0:0:0:
64,192,20201,1,0,0:0:0:0:
320,192,20201,1,8,0:0:0:0:
448,192,20261,1,2,0:0:0:0:
192,192,20321,1,0,0:0:0:0:
64,192,20321,1,8,0:0:0:0:
320,192,20381,1,2,0:0:0:0:
64,192,20441,1,0,0:0:0:0:
448,192,20441,1,8,0:0:0:0:
192,192,20501,1,2,0:0:0:0:
320,192,20561,1,8,0:0:0:0:
448,192,20561,1,0,0:0:0:0:
64,192,20621,1,2,0:0:0:0:
192,192,20681,1,0,0:0:0:0:
448,192,20681,1,8,0:0:0:0:
320,192,20741,1,2,0:0:0:0:
192,192,20801,1,0,0:0:0:0:
64,192,20801,1,8,0:0:0:0:
448,192,20861,1,2,0:0:0:0:
320,192,20921,1,8,0:0:0:0:
64,192,20921,1,0,0:0:0:0:
192,192,20981,1,2,0:0:0:0:
320,192,21041,1,8,0:0:0:0:
448,192,21041,1,0,0:0:0:0:
64,192,21101,1,2,0:0:0:0:
192,192,21161,1,0,0:0:0:0:
320,192,21161,1,8,0:0:0:0:
448,192,21221,1,2,0:0:0:0:
192,192,21281,1,8,0:0:0:0:
64,192,21281,1,0,0:0:0:0:
320,192,21341,1,2,0:0:0:0:
64,192,21401,1,0,0:0:0:0:
448,192,21401,1,8,0:0:0:0:
192,192,21461,1,2,0:0:0:0:
320,192,21521,1,8,0:0:0:0:
448,192,21521,1,0,0:0:0:0:
64,192,21581,1,2,0:0:0:0:
192,192,21641,1,0,0:0:0:0:
448,192,21641,1,8,0:0:0:0:
320,192,21701,1,2,0:0:0:0:
192,192,21761,1,8,0:0:0:0:
64,192,21761,1,0,0:0:0:0:
448,192,21821,1,2,0:0:0:0:
64,192,21881,1,0,0:0:0:0:
320,192,21881,1,8,0:0:0:0:
192,192,21941,1,2,0:0:0:0:
320,192,22001,1,0,0:0:0:0:
448,192,22001,1,8,0:0:0:0:
192,192,22061,1,2,0:0:0:0:
448,192,22121,1,0,0:0:0:0:
64,192,22121,1,8,0:0:0:0:
320,192,22181,1,2,0:0:0:0:
192,192,22241,1,8,0:0:0:0:
64,192,22241,1,0,0:0:0:0:
448,192,22301,1,2,0:0:0:0:
320,192,22361,1,8,0:0:0:0:
192,192,22361,1,0,0:0:0:0:
64,192,22421,1,2,0:0:0:0:
448,192,22481,1,8,0:0:0:0:
192,192,22481,1,0,0:0:0:0:
320,192,22541,1,2,0:0:0:0:
64,192,22601,1,8,0:0:0:0:
448,192,22601,1,0,0:0:0:0:
192,192,22661,1,2,0:0:0:0:
448,192,22721,1,8,0:0:0:0:
320,192,22721,1,0,0:0:0:0:
64,192,22781,1,2,0:0:0:0:
192,192,22841,1,8,0:0:0:0:
320,192,22841,1,0,0:0:0:0:
448,192,22901,1,0,0:0:0:0:
64,192,22901,1,8,0:0:0:0:
320,192,22961,1,0,0:0:0:0:
192,192,22961,1,8,0:0:0:0:
64,192,23021,1,8,0:0:0:0:
448,192,23021,1,0,0:0:0:0:
192,192,23081,1,8,0:0:0:0:
320,192,23081,1,0,0:0:0:0:
448,192,23141,1,0,0:0:0:70:drums_tom1.wav
320,192,23201,1,0,0:0:0:70:drums_tom1.wav
64,192,23261,1,0,0:0:0:70:drums_tom1.wav
192,192,23321,1,0,0:0:0:70:drums_tom1.wav
320,192,23381,1,8,0:0:0:0:
448,192,23381,1,0,0:0:0:0:
192,192,23441,1,8,0:0:0:0:
64,192,23441,1,0,0:0:0:0:
448,192,23541,1,0,0:0:0:0:
320,192,23541,1,8,0:0:0:0:
64,192,23621,1,2,0:0:0:0:
448,192,23681,1,0,0:0:0:0:
320,192,23681,1,8,0:0:0:0:
64,192,23741,1,0,0:0:0:0:
192,192,23741,1,8,0:0:0:0:
320,192,23801,1,8,0:0:0:0:
448,192,23801,1,0,0:0:0:0:
192,192,23861,1,4,0:0:0:0:
64,192,23861,1,6,0:0:0:0:
448,192,23921,1,0,0:0:0:0:
320,192,23921,1,8,0:0:0:0:
64,192,23981,1,2,0:0:0:0:
448,192,24041,1,0,0:0:0:0:
192,192,24041,1,8,0:0:0:0:
320,192,24101,1,2,0:0:0:0:
64,192,24161,1,8,0:0:0:0:
192,192,24161,1,0,0:0:0:0:
448,192,24221,1,2,0:0:0:0:
320,192,24281,1,8,0:0:0:0:
64,192,24281,1,0,0:0:0:0:
192,192,24341,1,2,0:0:0:0:
448,192,24401,1,8,0:0:0:0:
320,192,24401,1,0,0:0:0:0:
64,192,24461,1,2,0:0:0:0:
320,192,24521,1,8,0:0:0:0:
192,192,24521,1,0,0:0:0:0:
448,192,24581,1,2,0:0:0:0:
192,192,24641,1,0,0:0:0:0:
64,192,24641,1,8,0:0:0:0:
320,192,24701,1,2,0:0:0:0:
448,192,24761,1,0,0:0:0:0:
64,192,24761,1,8,0:0:0:0:
192,192,24821,1,2,0:0:0:0:
448,192,24881,1,8,0:0:0:0:
320,192,24881,1,0,0:0:0:0:
64,192,24941,1,2,0:0:0:0:
192,192,25001,1,0,0:0:0:0:
320,192,25001,1,8,0:0:0:0:
448,192,25061,1,2,0:0:0:0:
192,192,25121,1,8,0:0:0:0:
64,192,25121,1,0,0:0:0:0:
320,192,25181,1,2,0:0:0:0:
192,192,25241,1,2,0:0:0:0:
448,192,25241,1,0,0:0:0:0:
64,192,25301,1,2,0:0:0:0:
448,192,25361,1,8,0:0:0:0:
320,192,25361,1,0,0:0:0:0:
192,192,25421,1,2,0:0:0:0:
448,192,25481,1,8,0:0:0:0:
64,192,25481,1,0,0:0:0:0:
320,192,25541,1,2,0:0:0:0:
64,192,25601,1,8,0:0:0:0:
192,192,25601,1,0,0:0:0:0:
448,192,25661,1,2,0:0:0:0:
320,192,25721,1,8,0:0:0:0:
192,192,25721,1,0,0:0:0:0:
448,192,25781,1,4,0:0:0:0:
64,192,25781,1,6,0:0:0:0:
192,192,25841,1,8,0:0:0:0:
320,192,25841,1,0,0:0:0:0:
64,192,25901,1,2,0:0:0:0:
448,192,25961,1,0,0:0:0:0:
320,192,25961,1,8,0:0:0:0:
192,192,26021,1,2,0:0:0:0:
64,192,26081,1,8,0:0:0:0:
448,192,26081,1,0,0:0:0:0:
320,192,26141,1,2,0:0:0:0:
192,192,26201,1,8,0:0:0:0:
64,192,26201,1,0,0:0:0:0:
448,192,26261,1,2,0:0:0:0:
192,192,26321,1,0,0:0:0:0:
320,192,26321,1,8,0:0:0:0:
64,192,26381,1,2,0:0:0:0:
448,192,26441,1,8,0:0:0:0:
320,192,26441,1,0,0:0:0:0:
192,192,26501,1,2,0:0:0:0:
320,192,26561,1,8,0:0:0:0:
64,192,26561,1,0,0:0:0:0:
448,192,26621,1,2,0:0:0:0:
192,192,26681,1,0,0:0:0:0:
64,192,26681,1,8,0:0:0:0:
320,192,26741,1,2,0:0:0:0:
448,192,26801,1,8,0:0:0:0:
64,192,26801,1,0,0:0:0:0:
192,192,26861,1,2,0:0:0:0:
320,192,26921,1,8,0:0:0:0:
448,192,26921,1,0,0:0:0:0:
64,192,26981,1,2,0:0:0:0:
192,192,27041,1,8,0:0:0:0:
320,192,27041,1,0,0:0:0:0:
448,192,27101,1,2,0:0:0:0:
192,192,27161,1,0,0:0:0:0:
64,192,27161,1,8,0:0:0:0:
320,192,27221,1,2,0:0:0:0:
448,192,27281,1,8,0:0:0:0:
192,192,27281,1,0,0:0:0:0:
64,192,27341,1,2,0:0:0:0:
320,192,27401,1,8,0:0:0:0:
448,192,27401,1,0,0:0:0:0:
192,192,27461,1,2,0:0:0:0:
64,192,27521,1,8,0:0:0:0:
320,192,27521,1,0,0:0:0:0:
448,192,27581,1,2,0:0:0:0:
192,192,27641,1,8,0:0:0:0:
64,192,27641,1,0,0:0:0:0:
448,192,27701,1,6,0:0:0:0:
320,192,27701,1,4,0:0:0:0:
192,192,27761,1,8,0:0:0:0:
64,192,27761,1,0,0:0:0:0:
320,192,27821,1,2,0:0:0:0:
448,192,27881,1,0,0:0:0:0:
192,192,27881,1,8,0:0:0:0:
64,192,27941,1,2,0:0:0:0:
320,192,28001,1,0,0:0:0:0:
448,192,28001,1,8,0:0:0:0:
192,192,28061,1,2,0:0:0:0:
64,192,28121,1,8,0:0:0:0:
448,192,28121,1,0,0:0:0:0:
320,192,28181,1,2,0:0:0:0:
192,192,28241,1,8,0:0:0:0:
64,192,28241,1,0,0:0:0:0:
448,192,28301,1,2,0:0:0:0:
320,192,28361,1,0,0:0:0:0:
64,192,28361,1,8,0:0:0:0:
192,192,28421,1,2,0:0:0:0:
448,192,28481,1,8,0:0:0:0:
320,192,28481,1,0,0:0:0:0:
64,192,28541,1,2,0:0:0:0:
192,192,28601,1,8,0:0:0:0:
448,192,28601,1,0,0:0:0:0:
320,192,28661,1,2,0:0:0:0:
64,192,28721,1,0,0:0:0:0:
192,192,28721,1,8,0:0:0:0:
448,192,28781,1,2,0:0:0:0:
320,192,28841,1,0,0:0:0:0:
192,192,28841,1,8,0:0:0:0:
64,192,28901,1,2,0:0:0:0:
448,192,28961,1,0,0:0:0:0:
320,192,28961,1,8,0:0:0:0:
192,192,29021,1,2,0:0:0:0:
448,192,29081,1,0,0:0:0:0:
64,192,29081,1,8,0:0:0:0:
320,192,29141,1,2,0:0:0:0:
64,192,29201,1,0,0:0:0:0:
192,192,29201,1,8,0:0:0:0:
448,192,29261,1,2,0:0:0:0:
320,192,29321,1,0,0:0:0:0:
64,192,29321,1,8,0:0:0:0:
192,192,29381,1,2,0:0:0:0:
320,192,29441,1,8,0:0:0:0:
448,192,29441,1,0,0:0:0:0:
64,192,29501,1,2,0:0:0:0:
448,192,29561,1,0,0:0:0:0:
192,192,29561,1,8,0:0:0:0:
320,192,29621,1,4,0:0:0:0:
64,192,29621,1,6,0:0:0:0:
192,192,29681,1,8,0:0:0:0:
448,192,29681,1,0,0:0:0:0:
320,192,29741,1,2,0:0:0:0:
192,192,29801,1,8,0:0:0:0:
64,192,29801,1,0,0:0:0:0:
448,192,29861,1,2,0:0:0:0:
320,192,29921,1,0,0:0:0:0:
64,192,29921,1,8,0:0:0:0:
192,192,29981,1,2,0:0:0:0:
320,192,30041,1,8,0:0:0:0:
448,192,30041,1,0,0:0:0:0:
64,192,30101,1,2,0:0:0:0:
192,192,30161,1,0,0:0:0:0:
448,192,30161,1,8,0:0:0:0:
320,192,30221,1,2,0:0:0:0:
192,192,30281,1,0,0:0:0:0:
64,192,30281,1,8,0:0:0:0:
448,192,30341,1,2,0:0:0:0:
320,192,30401,1,0,0:0:0:0:
192,192,30401,1,8,0:0:0:0:
64,192,30461,1,2,0:0:0:0:
320,192,30521,1,8,0:0:0:0:
448,192,30521,1,0,0:0:0:0:
192,192,30581,1,2,0:0:0:0:
64,192,30641,1,0,0:0:0:0:
448,192,30641,1,8,0:0:0:0:
320,192,30701,1,2,0:0:0:0:
192,192,30761,1,8,0:0:0:0:
64,192,30761,1,0,0:0:0:0:
448,192,30821,1,2,0:0:0:0:
320,192,30881,1,8,0:0:0:0:
64,192,30881,1,0,0:0:0:0:
192,192,30941,1,2,0:0:0:0:
320,192,31001,1,8,0:0:0:0:
448,192,31001,1,0,0:0:0:0:
64,192,31061,1,4,0:0:0:0:
192,192,31061,1,6,0:0:0:0:
320,192,31121,1,8,0:0:0:0:
448,192,31121,1,0,0:0:0:0:
64,192,31181,1,2,0:0:0:0:
192,192,31241,1,8,0:0:0:0:
448,192,31241,1,0,0:0:0:0:
64,192,31301,1,4,0:0:0:0:
320,192,31301,1,6,0:0:0:0:
192,192,31361,1,8,0:0:0:0:
448,192,31361,1,0,0:0:0:0:
320,192,31421,1,2,0:0:0:0:
192,192,31481,1,0,0:0:0:0:
64,192,31481,1,8,0:0:0:0:
320,192,31541,1,6,0:0:0:0:
448,192,31541,1,4,0:0:0:0:
192,192,31781,1,8,0:0:0:0:
64,192,31781,1,0,0:0:0:0:
448,192,31901,1,0,0:0:0:0:
192,192,31901,1,8,0:0:0:0:
64,192,31961,1,0,0:0:0:0:
320,192,31961,1,8,0:0:0:0:
192,192,32021,1,8,0:0:0:0:
448,192,32021,1,0,0:0:0:0:
320,192,32141,1,8,0:0:0:0:
448,192,32141,1,0,0:0:0:0:
64,192,32261,1,0,0:0:0:0:
192,192,32261,1,8,0:0:0:0:
320,192,32321,1,8,0:0:0:0:
448,192,32321,1,0,0:0:0:0:
192,192,32381,1,8,0:0:0:0:
64,192,32381,1,0,0:0:0:0:
320,192,32441,1,8,0:0:0:0:
448,192,32441,1,0,0:0:0:0:
192,192,32501,1,8,0:0:0:0:
64,192,32501,1,0,0:0:0:0:
448,192,32621,1,0,0:0:0:0:
192,192,32621,1,8,0:0:0:0:
64,192,32741,1,8,0:0:0:0:
320,192,32741,1,0,0:0:0:0:
192,192,32861,1,8,0:0:0:0:
320,192,32861,1,0,0:0:0:0:
192,192,32981,1,0,0:0:0:0:
448,192,32981,1,8,0:0:0:0:
64,192,33101,1,0,0:0:0:0:
320,192,33101,1,8,0:0:0:0:
192,192,33221,1,8,0:0:0:0:
320,192,33221,1,0,0:0:0:0:
448,192,33281,1,8,0:0:0:0:
64,192,33281,1,0,0:0:0:0:
320,192,33341,1,8,0:0:0:0:
192,192,33341,1,0,0:0:0:0:
448,192,33401,1,8,0:0:0:0:
64,192,33401,1,0,0:0:0:0:
192,192,33461,1,2,0:0:0:0:
320,192,33461,1,4,0:0:0:0:
192,192,33701,1,0,0:0:0:0:
448,192,33701,1,8,0:0:0:0:
64,192,33821,1,0,0:0:0:0:
448,192,33821,1,8,0:0:0:0:
320,192,33881,1,0,0:0:0:0:
192,192,33881,1,8,0:0:0:0:
64,192,33941,1,8,0:0:0:0:
448,192,33941,1,0,0:0:0:0:
320,192,34061,1,0,0:0:0:0:
64,192,34061,1,8,0:0:0:0:
192,192,34181,1,0,0:0:0:0:
320,192,34181,1,8,0:0:0:0:
192,192,34301,1,0,0:0:0:0:
448,192,34301,1,8,0:0:0:0:
320,192,34421,1,8,0:0:0:0:
448,192,34421,1,0,0:0:0:0:
64,192,34481,1,0,0:0:0:0:
192,192,34481,1,8,0:0:0:0:
320,192,34541,1,8,0:0:0:0:
448,192,34541,1,0,0:0:0:0:
192,192,34601,1,8,0:0:0:0:
64,192,34601,1,0,0:0:0:0:
320,192,34661,1,8,0:0:0:0:
448,192,34661,1,0,0:0:0:0:
192,192,34781,1,0,0:0:0:0:
320,192,34781,1,8,0:0:0:0:
64,192,34901,1,0,0:0:0:0:
192,192,34901,1,8,0:0:0:0:
320,192,34961,1,8,0:0:0:0:
448,192,34961,1,0,0:0:0:0:
192,192,35021,1,8,0:0:0:0:
64,192,35021,1,0,0:0:0:0:
320,192,35081,1,8,0:0:0:0:
448,192,35081,1,0,0:0:0:0:
192,192,35141,1,8,0:0:0:0:
64,192,35141,1,0,0:0:0:0:
64,192,35261,1,8,0:0:0:0:
448,192,35261,1,0,0:0:0:0:
192,192,35381,1,4,0:0:0:0:
320,192,35381,1,4,0:0:0:0:
448,192,35381,1,2,0:0:0:0:
448,192,35621,1,0,0:0:0:0:
64,192,35621,1,8,0:0:0:0:
192,192,35681,1,8,0:0:0:0:
320,192,35681,1,0,0:0:0:0:
448,192,35741,1,8,0:0:0:0:
64,192,35741,1,0,0:0:0:0:
192,192,35801,1,8,0:0:0:0:
320,192,35801,1,0,0:0:0:0:
64,192,35861,1,8,0:0:0:0:
448,192,35861,1,2,0:0:0:0:
64,192,35981,1,2,0:0:0:0:
320,192,35981,1,8,0:0:0:0:
192,192,36101,1,8,0:0:0:0:
448,192,36101,1,0,0:0:0:0:
320,192,36221,1,0,0:0:0:0:
192,192,36221,1,8,0:0:0:0:
64,192,36341,1,8,0:0:0:0:
448,192,36341,1,2,0:0:0:0:
320,192,36461,1,8,0:0:0:0:
64,192,36461,1,0,0:0:0:0:
192,192,36581,1,8,0:0:0:0:
320,192,36581,1,0,0:0:0:0:
448,192,36701,1,8,0:0:0:0:
192,192,36701,1,0,0:0:0:0:
448,192,36821,1,0,0:0:0:0:
64,192,36821,1,8,0:0:0:0:
448,192,36941,1,0,0:0:0:0:
320,192,36941,1,8,0:0:0:0:
320,192,37061,1,0,0:0:0:0:
192,192,37061,1,8,0:0:0:0:
64,192,37121,1,8,0:0:0:0:
448,192,37121,1,0,0:0:0:0:
192,192,37181,1,8,0:0:0:0:
320,192,37181,1,0,0:0:0:0:
448,192,37241,1,0,0:0:0:0:
64,192,37241,1,8,0:0:0:0:
192,192,37301,1,12,0:0:0:0:
320,192,37301,1,0,0:0:0:0:
448,192,37541,1,0,0:0:0:0:
320,192,37541,1,8,0:0:0:0:
192,192,37601,1,8,0:0:0:0:
64,192,37601,1,0,0:0:0:0:
320,192,37661,1,8,0:0:0:0:
448,192,37661,1,0,0:0:0:0:
192,192,37721,1,8,0:0:0:0:
64,192,37721,1,0,0:0:0:0:
320,192,37781,1,8,0:0:0:0:
448,192,37781,1,0,0:0:0:0:
192,192,37841,1,8,0:0:0:0:
64,192,37841,1,0,0:0:0:0:
320,192,37901,1,8,0:0:0:0:
448,192,37901,1,0,0:0:0:0:
192,192,37961,1,8,0:0:0:0:
64,192,37961,1,0,0:0:0:0:
320,192,38021,1,8,0:0:0:0:
448,192,38021,1,0,0:0:0:0:
192,192,38081,1,8,0:0:0:0:
64,192,38081,1,0,0:0:0:0:
320,192,38141,1,8,0:0:0:0:
448,192,38141,1,0,0:0:0:0:
192,192,38201,1,8,0:0:0:0:
64,192,38201,1,0,0:0:0:0:
320,192,38261,1,8,0:0:0:0:
448,192,38261,1,0,0:0:0:0:
192,192,38321,1,8,0:0:0:0:
64,192,38321,1,0,0:0:0:0:
320,192,38381,1,8,0:0:0:0:
448,192,38381,1,0,0:0:0:0:
192,192,38441,1,8,0:0:0:0:
64,192,38441,1,0,0:0:0:0:
448,192,38501,1,0,0:0:0:0:
320,192,38501,1,8,0:0:0:0:
192,192,38561,1,8,0:0:0:0:
64,192,38561,1,0,0:0:0:0:
320,192,38621,1,8,0:0:0:0:
448,192,38621,1,0,0:0:0:0:
192,192,38681,1,8,0:0:0:0:
64,192,38681,1,0,0:0:0:0:
320,192,38741,1,8,0:0:0:0:
448,192,38741,1,0,0:0:0:0:
192,192,38801,1,8,0:0:0:0:
64,192,38801,1,0,0:0:0:0:
320,192,38861,1,8,0:0:0:0:
448,192,38861,1,0,0:0:0:0:
64,192,38921,1,8,0:0:0:0:
320,192,38981,1,0,0:0:0:70:soft-hitfinish2.wav
448,192,38981,1,2,0:0:0:0:
192,192,38981,1,0,0:0:0:70:soft-hitfinish2.wav
448,192,39221,1,2,0:0:0:0:
320,192,39281,1,0,0:0:0:0:
64,192,39281,1,8,0:0:0:0:
192,192,39341,1,2,0:0:0:0:
320,192,39401,1,0,0:0:0:0:
448,192,39401,1,8,0:0:0:0:
64,192,39461,1,2,0:0:0:0:
192,192,39521,1,8,0:0:0:0:
448,192,39521,1,0,0:0:0:0:
320,192,39581,1,2,0:0:0:0:
64,192,39641,1,8,0:0:0:0:
192,192,39641,1,0,0:0:0:0:
448,192,39701,1,2,0:0:0:0:
320,192,39761,1,8,0:0:0:0:
192,192,39761,1,0,0:0:0:0:
64,192,39821,1,2,0:0:0:0:
448,192,39881,1,8,0:0:0:0:
320,192,39881,1,0,0:0:0:0:
192,192,39941,1,2,0:0:0:0:
64,192,40001,1,0,0:0:0:0:
448,192,40001,1,8,0:0:0:0:
320,192,40061,1,2,0:0:0:0:
192,192,40121,1,0,0:0:0:0:
64,192,40121,1,8,0:0:0:0:
448,192,40181,1,2,0:0:0:0:
320,192,40241,1,8,0:0:0:0:
64,192,40241,1,0,0:0:0:0:
192,192,40301,1,2,0:0:0:0:
64,192,40361,1,0,0:0:0:0:
448,192,40361,1,8,0:0:0:0:
320,192,40421,1,2,0:0:0:0:
192,192,40481,1,8,0:0:0:0:
448,192,40481,1,0,0:0:0:0:
320,192,40541,1,2,0:0:0:0:
192,192,40601,1,8,0:0:0:0:
64,192,40601,1,0,0:0:0:0:
448,192,40661,1,2,0:0:0:0:
320,192,40721,1,0,0:0:0:0:
64,192,40721,1,8,0:0:0:0:
192,192,40781,1,2,0:0:0:0:
320,192,40841,1,0,0:0:0:0:
448,192,40841,1,8,0:0:0:0:
64,192,40901,1,2,0:0:0:0:
192,192,40961,1,0,0:0:0:0:
448,192,40961,1,8,0:0:0:0:
320,192,41021,1,2,0:0:0:0:
192,192,41081,1,0,0:0:0:0:
64,192,41081,1,8,0:0:0:0:
448,192,41141,1,4,0:0:0:0:
320,192,41141,1,6,0:0:0:0:
192,192,41201,1,8,0:0:0:0:
64,192,41201,1,0,0:0:0:0:
320,192,41261,1,2,0:0:0:0:
448,192,41321,1,8,0:0:0:0:
64,192,41321,1,0,0:0:0:0:
192,192,41381,1,2,0:0:0:0:
320,192,41441,1,8,0:0:0:0:
448,192,41441,1,0,0:0:0:0:
64,192,41501,1,2,0:0:0:0:
192,192,41561,1,8,0:0:0:0:
320,192,41561,1,0,0:0:0:0:
448,192,41621,1,2,0:0:0:0:
192,192,41681,1,0,0:0:0:0:
64,192,41681,1,8,0:0:0:0:
320,192,41741,1,2,0:0:0:0:
192,192,41801,1,0,0:0:0:0:
448,192,41801,1,8,0:0:0:0:
64,192,41861,1,2,0:0:0:0:
320,192,41921,1,8,0:0:0:0:
448,192,41921,1,0,0:0:0:0:
192,192,41981,1,2,0:0:0:0:
64,192,42041,1,0,0:0:0:0:
320,192,42041,1,8,0:0:0:0:
448,192,42101,1,2,0:0:0:0:
192,192,42161,1,0,0:0:0:0:
320,192,42161,1,8,0:0:0:0:
64,192,42221,1,2,0:0:0:0:
192,192,42281,1,8,0:0:0:0:
448,192,42281,1,0,0:0:0:0:
320,192,42341,1,2,0:0:0:0:
64,192,42401,1,0,0:0:0:0:
192,192,42401,1,8,0:0:0:0:
320,192,42461,1,8,0:0:0:0:
64,192,42521,1,8,0:0:0:0:
448,192,42521,1,0,0:0:0:0:
320,192,42581,1,6,0:0:0:0:
192,192,42581,1,4,0:0:0:0:
64,192,42641,1,0,0:0:0:0:
448,192,42641,1,8,0:0:0:0:
192,192,42701,1,2,0:0:0:0:
448,192,42761,1,0,0:0:0:0:
320,192,42761,1,8,0:0:0:0:
64,192,42821,1,2,0:0:0:0:
320,192,42881,1,0,0:0:0:0:
192,192,42881,1,8,0:0:0:0:
448,192,42941,1,2,0:0:0:0:
64,192,43001,1,8,0:0:0:0:
192,192,43001,1,0,0:0:0:0:
320,192,43061,1,6,0:0:0:0:
448,192,43121,1,0,0:0:0:0:
64,192,43121,1,8,0:0:0:0:
192,192,43181,1,2,0:0:0:0:
320,192,43241,1,0,0:0:0:0:
448,192,43241,1,8,0:0:0:0:
64,192,43301,1,2,0:0:0:0:
192,192,43361,1,0,0:0:0:0:
448,192,43361,1,8,0:0:0:0:
320,192,43421,1,2,0:0:0:0:
192,192,43481,1,0,0:0:0:0:
64,192,43481,1,8,0:0:0:0:
448,192,43541,1,2,0:0:0:0:
320,192,43601,1,8,0:0:0:0:
64,192,43601,1,0,0:0:0:0:
192,192,43661,1,2,0:0:0:0:
448,192,43721,1,0,0:0:0:0:
64,192,43721,1,8,0:0:0:0:
320,192,43781,1,2,0:0:0:0:
192,192,43841,1,0,0:0:0:0:
448,192,43841,1,8,0:0:0:0:
64,192,43901,1,2,0:0:0:0:
192,192,43961,1,0,0:0:0:0:
320,192,43961,1,8,0:0:0:0:
448,192,44021,1,2,0:0:0:0:
320,192,44081,1,0,0:0:0:0:
64,192,44081,1,8,0:0:0:0:
192,192,44141,1,2,0:0:0:0:
320,192,44201,1,0,0:0:0:0:
448,192,44201,1,8,0:0:0:0:
192,192,44261,1,2,0:0:0:0:
64,192,44321,1,8,0:0:0:0:
448,192,44321,1,0,0:0:0:0:
320,192,44381,1,2,0:0:0:0:
192,192,44441,1,8,0:0:0:0:
64,192,44441,1,0,0:0:0:0:
448,192,44501,1,2,0:0:0:0:
320,192,44561,1,8,0:0:0:0:
192,192,44561,1,0,0:0:0:0:
64,192,44621,1,2,0:0:0:0:
448,192,44681,1,8,0:0:0:0:
320,192,44681,1,0,0:0:0:0:
192,192,44741,1,2,0:0:0:0:
64,192,44801,1,0,0:0:0:0:
320,192,44801,1,8,0:0:0:0:
448,192,44861,1,2,0:0:0:0:
192,192,44921,1,8,0:0:0:0:
320,192,44921,1,0,0:0:0:0:
64,192,44981,1,6,0:0:0:0:
448,192,45041,1,0,0:0:0:0:
192,192,45041,1,8,0:0:0:0:
320,192,45101,1,2,0:0:0:0:
64,192,45161,1,8,0:0:0:0:
192,192,45161,1,0,0:0:0:0:
448,192,45221,1,2,0:0:0:0:
320,192,45281,1,0,0:0:0:0:
64,192,45281,1,8,0:0:0:0:
192,192,45341,1,2,0:0:0:0:
320,192,45401,1,0,0:0:0:0:
448,192,45401,1,8,0:0:0:0:
64,192,45461,1,2,0:0:0:0:
192,192,45521,1,8,0:0:0:0:
448,192,45521,1,0,0:0:0:0:
320,192,45581,1,2,0:0:0:0:
64,192,45641,1,8,0:0:0:0:
192,192,45641,1,0,0:0:0:0:
448,192,45701,1,2,0:0:0:0:
320,192,45821,1,2,0:0:0:0:
64,192,45941,1,0,0:0:0:0:
192,192,45941,1,8,0:0:0:0:
320,192,46001,1,8,0:0:0:0:
448,192,46001,1,0,0:0:0:0:
64,192,46061,1,2,0:0:0:0:
192,192,46121,1,2,0:0:0:0:
448,192,46181,1,0,0:0:0:70:drums_tom2.wav
320,192,46241,1,0,0:0:0:70:drums_tom2.wav
192,192,46301,1,2,0:0:0:0:
64,192,46361,1,2,0:0:0:0:
320,192,46421,1,4,0:0:0:0:
448,192,46421,1,0,0:0:0:0:
192,192,46421,1,2,0:0:0:0:
64,192,46481,1,2,0:0:0:0:
192,192,46541,1,2,0:0:0:0:
320,192,46601,1,2,0:0:0:0:
448,192,46661,1,8,0:0:0:0:
64,192,46661,1,0,0:0:0:70:soft-hitfinish2.wav
64,192,46901,1,2,0:0:0:0:
192,192,46901,1,0,0:0:0:0:
320,192,46981,1,2,0:0:0:0:
448,192,47061,1,2,0:0:0:0:
64,192,47141,1,0,0:0:0:0:
192,192,47221,1,2,0:0:0:0:
320,192,47301,1,2,0:0:0:0:
64,192,47381,1,2,0:0:0:0:
448,192,47381,1,0,0:0:0:0:
192,192,47461,1,2,0:0:0:0:
320,192,47541,1,2,0:0:0:0:
448,192,47621,1,2,0:0:0:0:
64,192,47701,1,2,0:0:0:0:
192,192,47781,1,2,0:0:0:0:
320,192,47861,1,2,0:0:0:0:
448,192,47861,1,0,0:0:0:0:
64,192,47941,1,2,0:0:0:0:
192,192,48021,1,2,0:0:0:0:
448,192,48101,1,2,0:0:0:0:
320,192,48181,1,2,0:0:0:0:
192,192,48261,1,2,0:0:0:0:
448,192,48341,1,8,0:0:0:0:
64,192,48341,1,0,0:0:0:0:
320,192,48421,1,2,0:0:0:0:
192,192,48501,1,2,0:0:0:0:
64,192,48581,1,2,0:0:0:0:
448,192,48661,1,2,0:0:0:0:
320,192,48741,1,2,0:0:0:0:
192,192,48821,1,0,0:0:0:0:
64,192,48821,1,0,0:0:0:0:
320,192,48901,1,2,0:0:0:0:
448,192,48981,1,2,0:0:0:0:
64,192,49061,1,2,0:0:0:0:
192,192,49141,1,2,0:0:0:0:
320,192,49221,1,2,0:0:0:0:
64,192,49301,1,0,0:0:0:0:
448,192,49301,1,8,0:0:0:0:
192,192,49381,1,0,0:0:0:0:
320,192,49461,1,0,0:0:0:0:
192,192,49541,1,0,0:0:0:0:
64,192,49541,1,8,0:0:0:0:
448,192,49621,1,2,0:0:0:0:
320,192,49701,1,2,0:0:0:0:
192,192,49781,1,2,0:0:0:0:
64,192,49861,1,2,0:0:0:0:
320,192,49941,1,2,0:0:0:0:
448,192,50021,1,2,0:0:0:0:
192,192,50101,1,8,0:0:0:0:
64,192,50101,1,0,0:0:0:0:
320,192,50181,1,2,0:0:0:0:
192,192,50261,1,8,0:0:0:0:
448,192,50261,1,0,0:0:0:70:soft-hitfinish2.wav
64,192,50341,1,2,0:0:0:0:
320,192,50421,1,2,0:0:0:0:
192,192,50501,1,8,0:0:0:0:
64,192,50501,1,0,0:0:0:0:
448,192,50581,1,2,0:0:0:0:
320,192,50661,1,2,0:0:0:0:
64,192,50741,1,0,0:0:0:0:
192,192,50741,1,4,0:0:0:0:
448,192,50741,1,2,0:0:0:0:
320,192,50821,1,2,0:0:0:0:
192,192,50901,1,2,0:0:0:0:
64,192,50981,1,2,0:0:0:0:
448,192,51061,1,2,0:0:0:0:
320,192,51141,1,2,0:0:0:0:
64,192,51221,1,0,0:0:0:0:
192,192,51221,1,8,0:0:0:0:
320,192,51301,1,0,0:0:0:70:drums_tom1.wav
448,192,51381,1,0,0:0:0:70:drums_tom1.wav
320,192,51461,1,0,0:0:0:70:drums_tom1.wav
192,192,51541,1,0,0:0:0:70:drums_tom1.wav
64,192,51621,1,0,0:0:0:70:drums_tom1.wav
448,192,51701,1,0,0:0:0:70:drums_tom2.wav
320,192,51781,1,0,0:0:0:70:drums_tom2.wav
192,192,51861,1,0,0:0:0:70:drums_tom2.wav
64,192,51941,1,0,0:0:0:70:drums_tom2.wav
192,192,52021,1,0,0:0:0:70:drums_tom2.wav
320,192,52101,1,0,0:0:0:70:drums_tom2.wav
64,192,52181,1,2,0:0:0:0:
448,192,52181,1,8,0:0:0:0:
192,192,52181,1,4,0:0:0:0:
320,192,52261,1,2,0:0:0:0:
192,192,52341,1,2,0:0:0:0:
64,192,52341,1,4,0:0:0:0:
448,192,52421,1,2,0:0:0:0:
320,192,52501,1,2,0:0:0:0:
192,192,52581,1,2,0:0:0:0:
320,192,52661,1,0,0:0:0:70:soft-hitfinish2.wav
448,192,52661,1,0,0:0:0:0:
64,192,52741,1,0,0:0:0:0:
192,192,52741,1,0,0:0:0:70:drums_tom1.wav
320,192,52821,1,2,0:0:0:0:
192,192,52901,1,2,0:0:0:0:
64,192,52981,1,2,0:0:0:0:
192,192,53061,1,2,0:0:0:0:
448,192,53141,1,2,0:0:0:0:
320,192,53141,1,0,0:0:0:0:
64,192,53221,1,2,0:0:0:0:
192,192,53301,1,2,0:0:0:0:
320,192,53381,1,2,0:0:0:0:
448,192,53461,1,2,0:0:0:0:
320,192,53541,1,2,0:0:0:0:
64,192,53621,1,0,0:0:0:0:
192,192,53621,1,4,0:0:0:0:
320,192,53701,1,8,0:0:0:0:
448,192,53701,1,0,0:0:0:0:
64,192,53781,1,0,0:0:0:0:
192,192,53781,1,8,0:0:0:0:
320,192,53861,1,8,0:0:0:0:
448,192,53861,1,0,0:0:0:0:
64,192,53941,1,0,0:0:0:0:
192,192,53941,1,8,0:0:0:0:
320,192,54021,1,8,0:0:0:0:
448,192,54021,1,0,0:0:0:0:
192,192,54101,1,0,0:0:0:70:drums_tom1.wav
64,192,54181,1,0,0:0:0:70:drums_tom1.wav
320,192,54261,1,0,0:0:0:70:drums_tom2.wav
448,192,54341,1,0,0:0:0:70:drums_tom2.wav
192,192,54421,1,0,0:0:0:70:drums_tom3.wav
64,192,54501,1,0,0:0:0:70:drums_tom3.wav
448,192,54581,1,0,0:0:0:0:
320,192,54581,1,2,0:0:0:0:
192,192,54581,1,4,0:0:0:0:
64,192,54661,1,2,0:0:0:0:
192,192,54741,1,2,0:0:0:0:
320,192,54821,1,2,0:0:0:0:
448,192,54901,1,2,0:0:0:0:
320,192,54981,1,2,0:0:0:0:
64,192,55061,1,0,0:0:0:0:
192,192,55061,1,2,0:0:0:0:
448,192,55141,1,2,0:0:0:0:
320,192,55221,1,2,0:0:0:0:
64,192,55301,1,2,0:0:0:0:
192,192,55381,1,2,0:0:0:0:
320,192,55461,1,2,0:0:0:0:
448,192,55541,1,0,0:0:0:0:
64,192,55541,1,2,0:0:0:0:
192,192,55621,1,2,0:0:0:0:
320,192,55701,1,2,0:0:0:0:
448,192,55781,1,2,0:0:0:0:
64,192,55861,1,2,0:0:0:0:
192,192,55941,1,2,0:0:0:0:
64,192,56021,1,2,0:0:0:0:
320,192,56021,1,4,0:0:0:0:
448,192,56021,1,0,0:0:0:0:
192,192,56101,1,2,0:0:0:0:
320,192,56181,1,2,0:0:0:0:
448,192,56261,1,2,0:0:0:0:
192,192,56341,1,2,0:0:0:0:
64,192,56421,1,2,0:0:0:0:
320,192,56501,1,0,0:0:0:0:
448,192,56501,1,2,0:0:0:0:
192,192,56581,1,2,0:0:0:0:
320,192,56661,1,2,0:0:0:0:
448,192,56741,1,2,0:0:0:0:
320,192,56821,1,2,0:0:0:0:
192,192,56901,1,2,0:0:0:0:
64,192,56981,1,0,0:0:0:0:
448,192,56981,1,8,0:0:0:0:
320,192,57061,1,2,0:0:0:0:
192,192,57061,1,4,0:0:0:0:
448,192,57141,1,2,0:0:0:0:
320,192,57221,1,2,0:0:0:0:
192,192,57301,1,0,0:0:0:0:
64,192,57301,1,8,0:0:0:0:
320,192,57381,1,2,0:0:0:0:
64,192,57461,1,0,0:0:0:0:
192,192,57461,1,4,0:0:0:0:
448,192,57461,1,0,0:0:0:0:
320,192,57541,1,2,0:0:0:0:
192,192,57621,1,8,0:0:0:0:
64,192,57621,1,0,0:0:0:0:
448,192,57701,1,2,0:0:0:0:
320,192,57781,1,8,0:0:0:0:
64,192,57781,1,0,0:0:0:0:
192,192,57861,1,0,0:0:0:0:
320,192,57941,1,8,0:0:0:0:
448,192,57941,1,0,0:0:0:0:
192,192,58021,1,2,0:0:0:0:
64,192,58101,1,2,0:0:0:0:
448,192,58101,1,4,0:0:0:0:
320,192,58181,1,2,0:0:0:0:
192,192,58261,1,2,0:0:0:0:
64,192,58341,1,2,0:0:0:0:
192,192,58421,1,4,0:0:0:0:
320,192,58421,1,2,0:0:0:0:
448,192,58421,1,0,0:0:0:0:
64,192,58501,1,2,0:0:0:0:
192,192,58581,1,2,0:0:0:0:
448,192,58661,1,2,0:0:0:0:
320,192,58741,1,2,0:0:0:0:
192,192,58821,1,2,0:0:0:0:
448,192,58901,1,2,0:0:0:0:
64,192,58901,1,4,0:0:0:0:
320,192,58981,1,0,0:0:0:70:drums_tom1.wav
192,192,59061,1,0,0:0:0:70:drums_tom1.wav
64,192,59141,1,0,0:0:0:70:drums_tom1.wav
320,192,59221,1,0,0:0:0:70:drums_tom1.wav
448,192,59301,1,0,0:0:0:70:drums_tom1.wav
64,192,59381,1,0,0:0:0:70:drums_tom2.wav
192,192,59461,1,0,0:0:0:70:drums_tom2.wav
448,192,59541,1,0,0:0:0:70:drums_tom2.wav
320,192,59621,1,0,0:0:0:70:drums_tom2.wav
192,192,59701,1,0,0:0:0:70:drums_tom2.wav
64,192,59781,1,0,0:0:0:70:drums_tom2.wav
320,192,59861,1,2,0:0:0:0:
448,192,59861,1,0,0:0:0:0:
192,192,59861,1,4,0:0:0:0:
64,192,59941,1,2,0:0:0:0:
192,192,60021,1,2,0:0:0:0:
448,192,60101,1,2,0:0:0:0:
320,192,60181,1,2,0:0:0:0:
192,192,60261,1,2,0:0:0:0:
64,192,60341,1,0,0:0:0:0:
320,192,60341,1,2,0:0:0:0:
448,192,60341,1,4,0:0:0:0:
192,192,60421,1,2,0:0:0:0:
320,192,60501,1,2,0:0:0:0:
448,192,60581,1,2,0:0:0:0:
64,192,60661,1,2,0:0:0:0:
192,192,60741,1,2,0:0:0:0:
320,192,60821,1,2,0:0:0:0:
448,192,60821,1,0,0:0:0:0:
192,192,60901,1,2,0:0:0:0:
64,192,60981,1,2,0:0:0:0:
448,192,61061,1,2,0:0:0:0:
320,192,61141,1,2,0:0:0:0:
192,192,61221,1,2,0:0:0:0:
64,192,61301,1,0,0:0:0:0:
448,192,61301,1,8,0:0:0:0:
320,192,61381,1,0,0:0:0:70:drums_tom1.wav
192,192,61461,1,0,0:0:0:70:drums_tom2.wav
320,192,61541,1,0,0:0:0:70:drums_tom1.wav
64,192,61621,1,0,0:0:0:70:drums_tom2.wav
192,192,61701,1,0,0:0:0:70:drums_tom2.wav
448,192,61781,1,2,0:0:0:0:
320,192,61861,1,2,0:0:0:0:
64,192,61941,1,0,0:0:0:70:drums_tom3.wav
192,192,62021,1,0,0:0:0:70:drums_tom3.wav
320,192,62101,1,2,0:0:0:0:
448,192,62181,1,2,0:0:0:0:
64,192,62261,1,0,0:0:0:0:
192,192,62261,1,2,0:0:0:0:
320,192,62261,1,4,0:0:0:0:
192,192,62621,1,2,0:0:0:0:
64,192,62621,1,0,0:0:0:70:soft-hitfinish3.wav
448,192,62621,1,0,0:0:0:0:
192,192,62741,1,0,0:0:0:70:soft-hitfinish3.wav
320,192,62741,1,2,0:0:0:0:
448,192,62741,1,0,0:0:0:0:
320,192,62981,1,4,0:0:0:0:
192,192,62981,1,2,0:0:0:0:
64,192,62981,1,0,0:0:0:0:
448,192,63101,1,4,0:0:0:0:
320,192,63101,1,2,0:0:0:0:
64,192,63101,1,0,0:0:0:0:
64,192,63701,1,0,0:0:0:0:
64,192,63821,1,0,0:0:0:0:
320,192,63941,1,0,0:0:0:0:
320,192,64061,1,0,0:0:0:0:
192,192,64181,1,0,0:0:0:0:
192,192,64301,1,0,0:0:0:0:
448,192,64421,1,2,0:0:0:0:
320,192,64421,1,4,0:0:0:0:
64,192,64421,1,4,0:0:0:0:
192,192,64541,1,8,0:0:0:0:
320,192,64541,1,0,0:0:0:0:
448,192,64661,1,2,0:0:0:0:
448,192,64781,1,0,0:0:0:0:
64,192,64781,1,8,0:0:0:0:
192,192,64901,1,2,0:0:0:0:
192,192,65021,1,0,0:0:0:0:
448,192,65021,1,8,0:0:0:0:
64,192,65141,1,2,0:0:0:0:
192,192,65201,1,2,0:0:0:0:
320,192,65261,1,8,0:0:0:0:
448,192,65261,1,0,0:0:0:0:
64,192,65381,1,2,0:0:0:0:
64,192,65501,1,0,0:0:0:0:
192,192,65501,1,8,0:0:0:0:
448,192,65621,1,2,0:0:0:0:
320,192,65741,1,8,0:0:0:0:
448,192,65741,1,0,0:0:0:0:
320,192,65861,1,0,0:0:0:70:soft-hitfinish3.wav
192,192,65861,1,0,0:0:0:0:
64,192,65861,1,0,0:0:0:0:
448,192,65981,1,8,0:0:0:0:
192,192,65981,1,0,0:0:0:0:
64,192,66101,1,2,0:0:0:0:
320,192,66221,1,0,0:0:0:0:
64,192,66221,1,8,0:0:0:0:
448,192,66341,1,0,0:0:0:0:
320,192,66341,1,0,0:0:0:0:
192,192,66341,1,0,0:0:0:70:soft-hitfinish3.wav
448,192,66461,1,8,0:0:0:0:
64,192,66461,1,0,0:0:0:0:
192,192,66581,1,4,0:0:0:0:
320,192,66581,1,4,0:0:0:0:
64,192,66581,1,0,0:0:0:0:
192,192,66701,1,8,0:0:0:0:
448,192,66701,1,0,0:0:0:0:
320,192,66821,1,2,0:0:0:0:
192,192,66941,1,8,0:0:0:0:
320,192,66941,1,0,0:0:0:0:
448,192,67061,1,2,0:0:0:0:
448,192,67181,1,8,0:0:0:0:
64,192,67181,1,0,0:0:0:0:
192,192,67301,1,2,0:0:0:0:
192,192,67421,1,0,0:0:0:0:
448,192,67421,1,8,0:0:0:0:
64,192,67541,1,2,0:0:0:0:
448,192,67661,1,8,0:0:0:0:
64,192,67661,1,0,0:0:0:0:
320,192,67781,1,2,0:0:0:0:
320,192,67901,1,8,0:0:0:0:
192,192,67901,1,0,0:0:0:0:
64,192,68021,1,0,0:0:0:0:
192,192,68021,1,4,0:0:0:0:
448,192,68021,1,0,0:0:0:0:
64,192,68141,1,0,0:0:0:0:
320,192,68141,1,8,0:0:0:0:
448,192,68261,1,2,0:0:0:0:
448,192,68381,1,0,0:0:0:0:
192,192,68381,1,8,0:0:0:0:
64,192,68501,1,0,0:0:0:0:
192,192,68501,1,0,0:0:0:0:
320,192,68501,1,0,0:0:0:70:soft-hitfinish3.wav
320,192,68621,1,8,0:0:0:0:
448,192,68621,1,0,0:0:0:0:
64,192,68741,1,0,0:0:0:70:drums_tom1.wav
192,192,68801,1,0,0:0:0:70:drums_tom1.wav
320,192,68861,1,0,0:0:0:70:drums_tom1.wav
448,192,68921,1,0,0:0:0:70:drums_tom1.wav
192,192,68981,1,8,0:0:0:0:
64,192,68981,1,0,0:0:0:0:
320,192,69041,1,8,0:0:0:0:
448,192,69041,1,0,0:0:0:0:
64,192,69101,1,0,0:0:0:0:
192,192,69101,1,8,0:0:0:0:
320,192,69161,1,8,0:0:0:0:
448,192,69161,1,0,0:0:0:0:
192,192,69221,1,2,0:0:0:0:
64,192,69281,1,2,0:0:0:0:
320,192,69341,1,2,0:0:0:0:
448,192,69401,1,2,0:0:0:0:
192,192,69461,1,0,0:0:0:70:soft-hitfinish3.wav
64,192,69461,1,0,0:0:0:0:
320,192,69461,1,0,0:0:0:0:
192,192,69581,1,8,0:0:0:0:
448,192,69581,1,0,0:0:0:0:
320,192,69701,1,2,0:0:0:0:
320,192,69821,1,8,0:0:0:0:
64,192,69821,1,0,0:0:0:0:
448,192,69941,1,2,0:0:0:0:
448,192,70061,1,0,0:0:0:0:
192,192,70061,1,8,0:0:0:0:
64,192,70181,1,8,0:0:0:0:
64,192,70301,1,0,0:0:0:0:
448,192,70301,1,8,0:0:0:0:
320,192,70421,1,2,0:0:0:0:
320,192,70541,1,8,0:0:0:0:
64,192,70541,1,0,0:0:0:0:
192,192,70661,1,2,0:0:0:0:
448,192,70781,1,8,0:0:0:0:
192,192,70781,1,0,0:0:0:0:
320,192,70901,1,4,0:0:0:0:
192,192,70901,1,0,0:0:0:0:
64,192,70901,1,0,0:0:0:0:
448,192,71021,1,8,0:0:0:0:
64,192,71021,1,0,0:0:0:0:
320,192,71141,1,8,0:0:0:0:
448,192,71141,1,0,0:0:0:0:
192,192,71201,1,8,0:0:0:0:
64,192,71201,1,0,0:0:0:0:
320,192,71261,1,8,0:0:0:0:
448,192,71261,1,0,0:0:0:0:
192,192,71321,1,8,0:0:0:0:
64,192,71321,1,0,0:0:0:0:
320,192,71381,1,2,0:0:0:0:
448,192,71501,1,8,0:0:0:0:
192,192,71501,1,0,0:0:0:0:
64,192,71621,1,0,0:0:0:0:
320,192,71621,1,4,0:0:0:0:
448,192,71621,1,0,0:0:0:0:
192,192,71741,1,8,0:0:0:0:
320,192,71741,1,0,0:0:0:0:
64,192,71861,1,0,0:0:0:0:
192,192,71861,1,8,0:0:0:0:
320,192,71921,1,8,0:0:0:0:
448,192,71921,1,0,0:0:0:0:
192,192,71981,1,8,0:0:0:0:
64,192,71981,1,0,0:0:0:0:
320,192,72041,1,8,0:0:0:0:
64,192,72101,1,0,0:0:0:0:
192,192,72101,1,0,0:0:0:70:soft-hitfinish3.wav
448,192,72101,1,0,0:0:0:0:
320,192,72221,1,0,0:0:0:0:
64,192,72221,1,8,0:0:0:0:
192,192,72341,1,0,0:0:0:70:soft-hitfinish3.wav
320,192,72341,1,0,0:0:0:0:
448,192,72341,1,0,0:0:0:0:
448,192,72461,1,8,0:0:0:0:
64,192,72461,1,0,0:0:0:0:
192,192,72581,1,2,0:0:0:0:
192,192,72701,1,8,0:0:0:0:
448,192,72701,1,0,0:0:0:0:
320,192,72821,1,2,0:0:0:0:
320,192,72941,1,8,0:0:0:0:
64,192,72941,1,0,0:0:0:0:
448,192,73061,1,2,0:0:0:0:
448,192,73181,1,0,0:0:0:0:
64,192,73181,1,8,0:0:0:0:
192,192,73301,1,2,0:0:0:0:
192,192,73421,1,0,0:0:0:0:
448,192,73421,1,8,0:0:0:0:
320,192,73541,1,0,0:0:0:70:soft-hitfinish3.wav
64,192,73541,1,0,0:0:0:0:
448,192,73541,1,0,0:0:0:0:
320,192,73661,1,0,0:0:0:0:
192,192,73661,1,8,0:0:0:0:
64,192,73781,1,0,0:0:0:0:
448,192,73781,1,4,0:0:0:0:
192,192,73781,1,4,0:0:0:0:
64,192,73901,1,0,0:0:0:0:
320,192,73901,1,8,0:0:0:0:
448,192,74021,1,2,0:0:0:0:
448,192,74141,1,0,0:0:0:0:
192,192,74141,1,8,0:0:0:0:
64,192,74261,1,0,0:0:0:70:drums_tom1.wav
192,192,74321,1,0,0:0:0:70:drums_tom1.wav
448,192,74381,1,0,0:0:0:70:drums_tom1.wav
320,192,74441,1,0,0:0:0:70:drums_tom1.wav
64,192,74501,1,0,0:0:0:0:
192,192,74501,1,8,0:0:0:0:
320,192,74561,1,8,0:0:0:0:
448,192,74561,1,0,0:0:0:0:
192,192,74621,1,8,0:0:0:0:
64,192,74621,1,0,0:0:0:0:
320,192,74681,1,8,0:0:0:0:
448,192,74681,1,0,0:0:0:0:
192,192,74741,1,0,0:0:0:70:drums_tom2.wav
64,192,74801,1,0,0:0:0:70:drums_tom2.wav
320,192,74861,1,0,0:0:0:70:drums_tom2.wav
448,192,74921,1,0,0:0:0:70:drums_tom2.wav
192,192,74981,1,8,0:0:0:0:
64,192,74981,1,0,0:0:0:0:
320,192,75041,1,8,0:0:0:0:
448,192,75041,1,0,0:0:0:0:
192,192,75101,1,8,0:0:0:0:
64,192,75101,1,0,0:0:0:0:
320,192,75161,1,8,0:0:0:0:
448,192,75161,1,0,0:0:0:0:
64,192,75221,1,0,0:0:0:0:
192,192,75221,1,8,0:0:0:0:
320,192,75281,1,2,0:0:0:0:
448,192,75341,1,2,0:0:0:0:
64,192,75401,1,2,0:0:0:0:
192,192,75461,1,0,0:0:0:70:soft-hitfinish3.wav
448,192,75461,1,8,0:0:0:0:
320,192,75521,1,2,0:0:0:0:
192,192,75581,1,2,0:0:0:0:
64,192,75641,1,2,0:0:0:0:
448,192,75701,1,0,0:0:0:70:soft-hitfinish3.wav
320,192,75701,1,8,0:0:0:0:
192,192,75761,1,2,0:0:0:0:
64,192,75821,1,2,0:0:0:0:
448,192,75881,1,2,0:0:0:0:
320,192,75941,1,8,0:0:0:0:
64,192,75941,1,0,0:0:0:0:
192,192,76001,1,2,0:0:0:0:
320,192,76061,1,2,0:0:0:0:
448,192,76121,1,2,0:0:0:0:
192,192,76181,1,0,0:0:0:70:soft-hitfinish3.wav
64,192,76181,1,8,0:0:0:0:
320,192,76241,1,2,0:0:0:0:
192,192,76301,1,2,0:0:0:0:
64,192,76361,1,2,0:0:0:0:
320,192,76421,1,8,0:0:0:0:
448,192,76421,1,0,0:0:0:70:soft-hitfinish3.wav
192,192,76481,1,2,0:0:0:0:
64,192,76541,1,2,0:0:0:0:
448,192,76601,1,2,0:0:0:0:
320,192,76661,1,0,0:0:0:0:
192,192,76661,1,8,0:0:0:0:
64,192,76721,1,2,0:0:0:0:
192,192,76781,1,0,0:0:0:0:
448,192,76781,1,8,0:0:0:0:
320,192,76841,1,2,0:0:0:0:
192,192,76901,1,8,0:0:0:0:
64,192,76901,1,0,0:0:0:0:
448,192,76961,1,2,0:0:0:0:
320,192,77021,1,0,0:0:0:0:
64,192,77021,1,8,0:0:0:0:
192,192,77081,1,2,0:0:0:0:
320,192,77141,1,8,0:0:0:0:
448,192,77141,1,0,0:0:0:0:
64,192,77181,1,2,0:0:0:0:
192,192,77221,1,2,0:0:0:0:
320,192,77261,1,2,0:0:0:0:
448,192,77301,1,2,0:0:0:0:
320,192,77341,1,2,0:0:0:0:
64,192,77381,1,0,0:0:0:0:
192,192,77381,1,8,0:0:0:0:
320,192,77441,1,8,0:0:0:0:
448,192,77441,1,0,0:0:0:0:
192,192,77501,1,8,0:0:0:0:
64,192,77501,1,0,0:0:0:0:
320,192,77561,1,8,0:0:0:0:
448,192,77561,1,0,0:0:0:0:
64,192,77621,1,0,0:0:0:70:drums_tom1.wav
192,192,77681,1,0,0:0:0:70:drums_tom1.wav
320,192,77741,1,0,0:0:0:70:drums_tom1.wav
448,192,77801,1,0,0:0:0:70:drums_tom1.wav
192,192,77861,1,8,0:0:0:0:
64,192,77861,1,0,0:0:0:0:
320,192,77921,1,8,0:0:0:0:
448,192,77921,1,0,0:0:0:0:
64,192,77981,1,0,0:0:0:0:
192,192,77981,1,8,0:0:0:0:
320,192,78041,1,8,0:0:0:0:
448,192,78041,1,0,0:0:0:0:
64,192,78101,1,2,0:0:0:0:
192,192,78161,1,2,0:0:0:0:
448,192,78221,1,2,0:0:0:0:
320,192,78281,1,2,0:0:0:0:
192,192,78341,1,8,0:0:0:0:
64,192,78341,1,0,0:0:0:70:soft-hitfinish3.wav
320,192,78401,1,2,0:0:0:0:
448,192,78461,1,2,0:0:0:0:
64,192,78521,1,2,0:0:0:0:
192,192,78581,1,0,0:0:0:70:soft-hitfinish3.wav
320,192,78581,1,8,0:0:0:0:
448,192,78641,1,2,0:0:0:0:
64,192,78701,1,2,0:0:0:0:
192,192,78761,1,2,0:0:0:0:
448,192,78821,1,8,0:0:0:0:
320,192,78821,1,0,0:0:0:70:soft-hitfinish3.wav
192,192,78881,1,2,0:0:0:0:
64,192,78941,1,2,0:0:0:0:
448,192,79001,1,2,0:0:0:0:
320,192,79061,1,8,0:0:0:0:
192,192,79061,1,0,0:0:0:70:soft-hitfinish3.wav
64,192,79121,1,2,0:0:0:0:
192,192,79181,1,2,0:0:0:0:
320,192,79241,1,2,0:0:0:0:
448,192,79301,1,8,0:0:0:0:
64,192,79301,1,0,0:0:0:0:
192,192,79361,1,2,0:0:0:0:
320,192,79421,1,8,0:0:0:0:
448,192,79421,1,0,0:0:0:0:
